Скачать Внутреннее Пространство 1987

Скачать Внутреннее Пространство 1987.rar
Закачек 1703
Средняя скорость 6198 Kb/s

Скачать Внутреннее Пространство 1987

1424 kbps avg, 0.198 bit/pixel
Аудио: Аудио1: 48 kHz, Dolby Digital AC3 2.0, 192 kbps DUB
Аудио2: 48 kHz, Dolby Digital AC3 2.0, 192 kbps Английский

1833 kbps avg, 0.27 bit/pixel
Аудио: Аудио #1: 48 kHz, AC3 Dolby Digital, 3/2 (L,C,R,l,r) + LFE ch,

384 kbps avg (MVO) DVD
Аудио #2: 48 kHz, AC3 Dolby Digital, 3/2 (L,C,R,l,r) + LFE ch,

Скачать торрент Внутреннее пространство бесплатно

Не забывайте оставаться на раздаче после того, как скачали торрент! Помогите скачать и другим — поддержите свободный обмен!

Скачать похожие торренты

Ресурс N-TORRENTS.RU не содержит никакой нелегальной информации. На сервере хранятся только торрент-файлы, содержащие в себе хеш-суммы файлов, свободно доступных в Сети.

Владельцы данного ресурса не несут ответственности за действия пользователей, размещающих здесь информацию, охраняемую авторским правом. Если Вы — обладатель авторских прав на материал, Вы можете связаться с нами через форму обратной связи и прекратить размещение его копий на всех страницах сайта. Мы оставляем за собой право потребовать у вас правоустанавливающие документы. Максимальное время рассмотрения жалобы — 48 часов с момента получения письма. Данный ресурс полностью анонимный: IP-адреса и действия пользователей не сохраняются.

Скачать фильм «Внутреннее пространство» через торрент бесплатно

1527 kbps avg, 0.24 bit/pixel
Аудио: 48 kHz, AC3 Dolby Digital, 2/0 (L,R) ch,

1833 kbps avg, 0.27 bit/pixel
Аудио #1: 48 kHz, AC3 Dolby Digital, 3/2 (L,C,R,l,r) + LFE ch,

384 kbps avg (MVO) DVD
Аудио #2: 48 kHz, AC3 Dolby Digital, 3/2 (L,C,R,l,r) + LFE ch,

384 kbps avg (ENG)
Аудио #3: 48 kHz, AC3 Dolby Digital, 2/0 (L,R) ch,

192 kbps avg (DUB.VARUS.VIDEO)(отдельно)
Аудио #4: 48 kHz, AC3 Dolby Digital, 2/0 (L,R) ch,

192 kbps avg (MVO.NTV)(отдельно)
Аудио #5: 48 kHz, AC3 Dolby Digital, 2/0 (L,R) ch,

192 kbps avg (MVO)(отдельно)
Аудио #6: 48 kHz, AC3 Dolby Digital, 2/0 (L,R) ch,

192 kbps avg (UKR.MVO.ICTV)(отдельно)
Аудио #7: 48 kHz, AC3 Dolby Digital, 3/2 (L,C,R,l,r) + LFE ch,

384 kbps avg (AVO.MIHALEV.V1)(отдельно)
Аудио #8: 48 kHz, AC3 Dolby Digital, 3/2 (L,C,R,l,r) + LFE ch,

384 kbps avg (AVO.MIHALEV.V2)(отдельно)
Аудио #9: 48 kHz, AC3 Dolby Digital, 3/2 (L,C,R,l,r) + LFE ch,

384 kbps avg (AVO.VOLODARSKIY)(отдельно)
Аудио #10: 48 kHz, AC3 Dolby Digital, 3/2 (L,C,R,l,r) + LFE ch,

384 kbps avg (AVO.POPOV)(отдельно)
Аудио #11: 48 kHz, AC3 Dolby Digital, 2/0 (L,R) ch,

192 kbps avg (AVO.GAVRILOV)(отдельно)

2341 kbps avg, 0.159 bit/pixel
Аудио: 48 kHz, Dolby Digital AC3 2.0, 192 kbps DUB
Аудио: 48 kHz, Dolby Digital AC3 2.0, 192 kbps Английский
Видео: Идентификатор : 1 Формат : AVC Формат/Информация : Advanced Video Codec Профиль формата : High@L4.1 Параметр CABAC формата : Да Параметр ReFrames формата : 8 кадров Идентификатор кодека : V_MPEG4/ISO/AVC Продолжительность : 1 ч. 54 м. Битрейт : 2341 Кбит/сек Ширина : 1024 пикселя Высота : 576 пикселей Соотношение сторон : 16:9 Режим частоты кадров : Постоянный Частота кадров : 25,000 кадров/сек Цветовое пространство : YUV Субдискретизация насыщенности : 4:2:0 Битовая глубина : 8 бит Тип развёртки : Прогрессивная Бит/(Пиксели*Кадры) : 0.159 Размер потока : 1,83 Гбайт (84%) Заголовок : Источник HDTV Библиотека кодирования : x264 core 138 r2356 a1d3d17 Настройки программы : cabac=1 / ref=8 / deblock=1:-3:-2 / analyse=0x3:0x113 / me=umh / subme=10 / psy=1 / psy_rd=1.00:0.05 / mixed_ref=1 / me_range=32 / chroma_me=1 / trellis=2 / 8x8dct=1 / cqm=0 / deadzone=21,11 / fast_pskip=1 / chroma_qp_offset=-3 / threads=3 / lookahead_threads=1 / sliced_threads=0 / nr=0 / decimate=0 / interlaced=0 / bluray_compat=0 / constrained_intra=0 / bframes=8 / b_pyramid=2 / b_adapt=2 / b_bias=0 / direct=3 / weightb=1 / open_gop=0 / weightp=2 / keyint=250 / keyint_min=25 / scenecut=40 / intra_refresh=0 / rc_lookahead=40 / rc=2pass / mbtree=1 / bitrate=2341 / ratetol=1.0 / qcomp=0.60 / qpmin=0 / qpmax=69 / qpstep=4 / cplxblur=20.0 / qblur=0.5 / ip_ratio=1.40 / aq=1:1.00 Язык : English Default : Да Forced : Нет
Аудио #1: Идентификатор : 2 Формат : AC-3 Формат/Информация : Audio Coding 3 Расширение режима : CM (complete main) Параметр Endianness формата : Big Идентификатор кодека : A_AC3 Продолжительность : 1 ч. 54 м. Вид битрейта : Постоянный Битрейт : 192 Кбит/сек Каналы : 2 канала Расположение каналов : Front: L R Частота : 48,0 КГц Битовая глубина : 16 бит Метод сжатия : С потерями Размер потока : 158 Мбайт (7%) Заголовок : Источник HDTV Dolby Digital 2,0 192 kbps Язык : Russian Default : Да Forced : Нет
Аудио #2: Идентификатор : 3 Формат : AC-3 Формат/Информация : Audio Coding 3 Расширение режима : CM (complete main) Параметр Endianness формата : Big Идентификатор кодека : A_AC3 Продолжительность : 1 ч. 54 м. Вид битрейта : Постоянный Битрейт : 192 Кбит/сек Каналы : 2 канала Расположение каналов : Front: L R Частота : 48,0 КГц Битовая глубина : 16 бит Метод сжатия : С потерями Размер потока : 158 Мбайт (7%) Заголовок : Источник HDTV Dolby Digital 2,0 192 kbps Язык : English Default : Нет Forced : Нет

1424 kbps avg, 0.198 bit/pixel
Аудио: 48 kHz, Dolby Digital AC3 2.0, 192 kbps DUB
Аудио: 48 kHz, Dolby Digital AC3 2.0, 192 kbps Английский
Видео: Идентификатор : 0 Формат : MPEG-4 Visual Профиль формата : Advanced Simple@L5 Параметр BVOP формата : 1 Параметр QPel формата : Нет Параметр GMC формата : Без точки перехода Параметр матрицы формата : Выборочная Идентификатор кодека : XVID Идентификатор кодека/Подсказка : XviD Продолжительность : 1 ч. 54 м. Битрейт : 1424 Кбит/сек Ширина : 720 пикселей Высота : 400 пикселей Соотношение сторон : 16:9 Частота кадров : 25,000 кадров/сек Цветовое пространство : YUV Субдискретизация насыщенности : 4:2:0 Битовая глубина : 8 бит Тип развёртки : Прогрессивная Метод сжатия : С потерями Бит/(Пиксели*Кадры) : 0.198 Размер потока : 1,14 Гбайт (78%) Библиотека кодирования : XviD 73
Аудио #1: Идентификатор : 1 Формат : AC-3 Формат/Информация : Audio Coding 3 Расширение режима : CM (complete main) Параметр Endianness формата : Big Идентификатор кодека : 2000 Продолжительность : 1 ч. 54 м. Вид битрейта : Постоянный Битрейт : 192 Кбит/сек Каналы : 2 канала Расположение каналов : Front: L R Частота : 48,0 КГц Битовая глубина : 16 бит Метод сжатия : С потерями Размер потока : 158 Мбайт (11%) Выравнивание : Разделение по промежуткам Продолжительность промежутка : 40 мс. (1,00 видеокадр) Время предзагрузки промежутка : 500 мс.
Аудио #2: Идентификатор : 2 Формат : AC-3 Формат/Информация : Audio Coding 3 Расширение режима : CM (complete main) Параметр Endianness формата : Big Идентификатор кодека : 2000 Продолжительность : 1 ч. 54 м. Вид битрейта : Постоянный Битрейт : 192 Кбит/сек Каналы : 2 канала Расположение каналов : Front: L R Частота : 48,0 КГц Битовая глубина : 16 бит Метод сжатия : С потерями Размер потока : 158 Мбайт (11%) Выравнивание : Разделение по промежуткам Продолжительность промежутка : 40 мс. (1,00 видеокадр) Время предзагрузки промежутка : 500 мс

770 kbps avg, 0.140 bit/pixel
Аудио: 48 kHz, MP3 2.0, 128 kbps
Видео: Идентификатор : 0 Формат : MPEG-4 Visual Профиль формата : Advanced Simple@L5 Параметр BVOP формата : 1 Параметр QPel формата : Нет Параметр GMC формата : Без точки перехода Параметр матрицы формата : Выборочная Идентификатор кодека : XVID Идентификатор кодека/Подсказка : XviD Продолжительность : 1 ч. 54 м. Битрейт : 770 Кбит/сек Ширина : 624 пикселя Высота : 352 пикселя Соотношение сторон : 16:9 Частота кадров : 25,000 кадров/сек Цветовое пространство : YUV Субдискретизация насыщенности : 4:2:0 Битовая глубина : 8 бит Тип развёртки : Прогрессивная Метод сжатия : С потерями Бит/(Пиксели*Кадры) : 0.140 Размер потока : 632 Мбайт (85%) Библиотека кодирования : XviD 73
Аудио: Идентификатор : 1 Формат : MPEG Audio Версия формата : Version 1 Профиль формата : Layer 3 Идентификатор кодека : 55 Идентификатор кодека/Подсказка : MP3 Продолжительность : 1 ч. 54 м. Вид битрейта : Постоянный Битрейт : 128 Кбит/сек Каналы : 2 канала Частота : 48,0 КГц Метод сжатия : С потерями Размер потока : 105 Мбайт (14%) Выравнивание : Соединение по промежуткам Продолжительность промежутка : 40 мс. (1,00 видеокадр) Время предзагрузки промежутка : 504 мс. Библиотека кодирования : LAME3.99r Настройки программы : -m s -V 4 -q 2 -lowpass 17 -b 128

2500 kbps avg, 0.111 bit/pixel
Аудио#1: Русский48 kHz, AC-3, 2 ch,

192.00 kbps avg[Профессиональный (полное дублирование)
Аудио#2: Русский48 kHz, AC-3, 2 ch,

192.00 kbps avg[Внешним файлом:Авторский (одноголосый, Алексей Михалев)
Аудио#3: Английский48 kHz, AC-3, 2 ch,

192.00 kbps avg[Внешним файлом:Оригинал]
Аудио#4: Русский48 kHz, AC-3, 6 ch,

384.00 kbps avg[Внешним файлом:Профессиональный (многоголосый, закадровый)
Субтитры: Русские, Английские (полные, отключаемые)


Статьи по теме